Index Of Santana Flac

Exact Audio Copy V1. * Carlos Santana : lead guitar (02,03,04,08,09), gu. Supernatural is the eighteenth studio album by Latin rock band Santana, released on June 15, 1999 on Arista Records. I have not provided a sound quality rating as virtually all are of sufficient high quality to rate around 5 out of 5, some are worthy of 5+ like the best official releases. Nº 1 UFO - Strangers in the Night 8 cd Boxset Nº 2 Steve Harley - Uncovered Nº 3 Stray Cats - Rocked this Town From LA to London Nº 4 Eric Clapton's Crossroads 2019. (Midas Touch 93621/2) Recorded Live in Isle of Wight - August 29, 1970 & Stockholm - December 12, 1970. Label: CBS - SBP 233748,CBS - SBP-233748,CBS - CS9781 • Format: Vinyl LP, Album • Country: Australia • Genre: Rock, Latin • Style: Blues Rock, Rock & Roll, Hard Rock, Psychedelic Rock, Pop Rock. 4: 524 : Edgar Winter - 1974-09-10 - Boston, MA (AUD/FLAC) EDGE. The Beatles A Hard Day's Night (1964) [FLAC] (2009 Stereo 3 of 16) - FLAC Release date: 1964. Mordor PL - Nothing Makes Any Sense. cue) Quality: Hi-Fi, lossless audio Sample Rate: 44. The main sections of the site: Soundtracks to animations. Cymande The Message Flac. 98: Viewing 1 - 20 of 58 Products. Nahrávejte, sdílejte a stahujte zdarma. 2 Santana Abraxas 1970. Santana – Greatest Hits: Live At Montreux 2011 (2020) Santana – Live From House Of Blues, Las Vegas, NV (2020) Santana – Tanglewood 1970: The Classic Early Broadcast (2019). flac: DR 17 07-Think. SANTANA - Live at Santa Barbara County Bowl, Santa Barbara, California, USA, 1991-09-07 [FLAC] NILS PETTER MOLVAER (with Eivind Aarset) - Live at Stadtgarten, Cologne, Germany, 2000-06-25 [FM][FLAC] PAT METHENY GROUP - The PMG Companion, Vol. Santana, American musical group whose use of salsa and mambo-style percussion exposed a wide rock audience to traditional Latin American music. Related Blog Posts. In 1994, he played at the commemorative concert at Woodstock, 25 years after his band's transformative. Scene FLAC Music, muzik, musik scene Club, sets mix, music mp3s, WEB 320kbps Tracks, Private FTP Server, Musica VIP, Dance Hits, 90s Various artists VA, EDM Live Radio, Music Stream, Electro House, Club Dance Music Mix, Electro House, Deep House, Chill Out, Trap, Bounce and much more. Request form. Check out the complete discography for all solo and guest appearances. flac" WAVE TRACK 01 AUDIO TITLE "Soul Sacrifice" PERFORMER "Santana" INDEX 01 00:00:00 TRACK 02 AUDIO TITLE "Evil Ways". Carlos Santana - Summer Dreams - The Best Ballads Of Santana. Tracklist & Download Links. iOS 13 is faster and more responsive with optimizations across the system that improve app launch, reduce app download sizes and make Face ID even faster. Quality: FLAC 24 bit / 44. 3ost - Lossless Soundtracks. Art Studio USA). Nahrávejte, sdílejte a stahujte zdarma. br/user/rogerjazzfan5th track from Carlos Santana's "Caravanserai" album, 1972. Santana - Secret Santana (FM/FLAC) EDGE. Artist: Santana Title Of Album: IV Release Date: 2016 Location: USA Label: Santana IV Records (S4007) Genre: Classic Rock Latin Rock Blues Quality: FLAC | lossless (image+. : Dati Album :. 2016 | Commentaires: 185 | Articles: 0. On what song does Juelz Santana say "Money aint a thing thats why I spend it"?. Santana : Ultimate Santana (flac) ไม่เสียเรโช 2021-01-05 21:51:02 ซีดีและไฟล์มาสเตอร์ต้นฉบับ 537. Recent Entries; 2000-11-30 · The Damned @ queensway hall, Dunstable · 2 months ago; 1977-08-12 · Emerson, Lake & Palmer @ Boston Garden, Boston · boston garden · 2 months ago. Santana – Santana (1978) [FLAC] Tagged Classic Rock, Santana Discover. Active Index Investing: Maximizing. rar 0; Size 457 MB; Fast download for credit 7 minut – 0,04. Track 02 audio. Santana - Secret Santana (FM/FLAC) EDGE. cue) Quality: Hi-Fi, lossless audio Sample Rate: 44. HTTP download also available at fast speeds. flac" WAVE TRACK 18 AUDIO PERFORMER "Captain Beefheart & His Magic Band" TITLE "Zig Zag Wanderer" INDEX 01 00:00:00 FILE "19. KrazyKnight. What is a subscription and what is it for? A. of? mp3 santana. Download Santana-FLAC Fast and for Free. (The Quality Music Project) In this project me and my fellow pirates share only quality items out of our CD collections in lossless FLAC and include covers, especially for those who like to burn and print and put it in a nice and shiny jewelcase. 1 kHz (Tracks) Artist: Southerland Title: Little Bit Of You + Along Those Lines Released: 2021 Style: Country RAR Size: 78 Mb. cue Битрейт аудио: lossless Santana / Hits Of Santana. Index - Index 1967-1970 USA Psychedelic Garage Pop Blues Rock s. Code: Select all Reunion, 1995–1997 Between 1987 and 1995, Journey's record label released three compilations. Carlos Santana & Herbie Hancock- Live in Tokyo 1981 2019. In a small amount: Lossy ( MP3 320 kbps ). 1974 - Lotus 1993 - Sacred Fire: Live in South America 1997 - Santana Live At The Fillmore 2009 - The Woodstock Experience. Buy, preview and download over 30 million tracks in our store. rar 0; Size 457 MB; Fast download for credit 7 minut – 0,04. BLUE CHEER STEPPENWOLF THE GRATEFUL DEAD H. Captain Beefheart & His Magic Band - Zig Zag Wanderer. Catalog #: 88697772072 Style: Blues Rock, Classic Rock Year: 2010 Format: FLAC (image +. 1 kHz MP3 320 Kbps. 1 kHz (Tracks) Artist: Eagles Title: Hell Freezes Over. 6 MHz) + FLAC 24 bit / 96 kHz (Tracks) + FLAC 16 bit / 44. We only index and link to content provided on other servers. In 1993, Kevin Chalfant (of The Storm) performed with members of Journey on a few shows, and Schon, Cain, Valory, Smith and Rolie briefly considered reuniting the band with Chalfant as lead singer. Turiya Alice Coltrane, Mahavishnu John McLaughlin, Santana Brothers) - 32 albums (35 CD) - 1969-2012, FLAC (image+. Best quality lossless flac music. Descarga acá Mercedes Sosa – The Best of. In case of lack of purchase, you will permanently delete the files within. Index Of Kingdom X265. PERFORMER "Santana". Request form. flac: DR 17 07-Think. Download santana flac Torrents from Our Search Results, GET santana flac Torrent or Magnet via Bittorrent clients. Send us your vinyl records and you will be amazed at the fidelity you will hear from our professionally transferred and edited high resolution digital [FLAC] files. flac: DR 16 04-Sinners Prayer. Santana - Secret Santana (FM/FLAC) EDGE. cue) Bitrate: lossless Covers: in archive Amount of tracks: 14 Size ZIP: ~ 464 mb Upload: nitroflare. 2 (2020) [24bit FLAC] Exotic Sin – Customer’s Copy (2020) [24bit FLAC] Eric Lu – Late Works by Mozart, Schubert & Brahms (2018) [24bit FLAC] Top Posts. santana flac results 1 - 25 from 61. Ne vous inquietez pas car je compresse la version flac 16 bits en ce moment au format rar4 et vue que bzh41 ce plein du lien mp3 hs je vais essayer de trouver la version MP3 de cette album. wav" WAVE TRACK 07 AUDIO TITLE "She's Released in 1988, Viva Santana! is a generous 30-track overview of Santana's first 20 years of recording. Index 01 00:00:00. Free FLAC, WMA, APE, MP3 music download now. flac" WAVE TRACK 01 AUDIO TITLE "Yambu" PERFORMER "Santana" INDEX 01 00:00. flac: DR 16 08-Telling it Like it Is. Релиз подготовлен Proper SelfMade Lossless Group "Lossless Group - Always Proper, Ever SelfMade" Carlos Santana - The Very Best Of 00:00:00 FILE "02 - Black Magic Woman. [24/96] Frank Sinatra - Francis Albert Sinatra & Antonio Carlos Jobim - 1967 (REPRISE RECORDS - FS 1021 STEREO) FLAC (image+. : Tracklist :. Recent Entries; 2000-11-30 · The Damned @ queensway hall, Dunstable · 2 months ago; 1977-08-12 · Emerson, Lake & Palmer @ Boston Garden, Boston · boston garden · 2 months ago. 0 % Test CRC 8F917B9E Copy CRC 8F917B9E Accurately ripped (confidence 13) [3F06B139] (AR v2) Copy OK Track 20. Start your free trial now!. com Password: without a password. Santana - 12/31/75 Cow Palace San Francisco FM Santana 2019 From $4. 10月抖音神曲背景音乐100首精选大全 (一)[flac格式] 陈雪燃 - 无名之辈[flac格式] 正版2018抖音热门歌曲最新合集56首网盘打包下载[wav] 你的酒馆对我打了烊 - 陈雪凝[flac格式] 生僻字 - 陈柯宇[flac格式] 绿色 - 陈雪凝[flac格式] 浪子回头 (live) - 杨坤 歌手第三季第11期[flac. Исполнитель:VA Название: God Damn - God Damn (2020) FLAC Жанр: Rock Год выпуска: 2020 Количество треков: 11 Время звучания: 39:05 Формат: FLAC Качество: LOSSLESS Размер: 256 MB Исполнитель:. Аудиокодек: FLAC. In 1994, he played at the commemorative concert at Woodstock, 25 years after his band's transformative. 1974 - Lotus 1993 - Sacred Fire: Live in South America 1997 - Santana Live At The Fillmore 2009 - The Woodstock Experience. I have not provided a sound quality rating as virtually all are of sufficient high quality to rate around 5 out of 5, some are worthy of 5+ like the best official releases. 11-28-2020 05:10 PM by. 1 kHz / 16 Bit Source: 4 x CD, Compilation Album Artist: VA Album Name: Pure Legends. 0 % Test CRC 8F917B9E Copy CRC 8F917B9E Accurately ripped (confidence 13) [3F06B139] (AR v2) Copy OK Track 20. Santana é uma banda americana, formada por um número variável de músicos que acompanham o guitarrista e compositor mexicano Carlos Santana desde o fim da década de 1960. (The Quality Music Project) In this project me and my fellow pirates share only quality items out of our CD collections in lossless FLAC and include covers, especially for those who like to burn and print and put it in a nice and shiny jewelcase. Despite a mutual respect for one another’s music, Bob and Santana never recorded together Q: “Is it true that Bob Marley and Santana did some recordings together in 1979? If so what happened to those tapes?”-Ben Kramer. LOVECRAFT VANILLA FUDGE THE BYRDS BOB DYLAN THE ROLLING STONES THE BEATLES. Turiya Alice Coltrane & Devadip Carlos Santana – Illuminations (SACD) 7/27 Kodomo – Divider (DVD-A. Filename E:\Nafta Releases\VA - 100 Hits Rock Jukebox (5 CD 2016)[FLAC] - Naftamusic\CD 1\19 - Carlos Santana - Soul Sacrifice. flac) Тип рипа: track+. ]Titolo: Santana Anno: 1969 Genere: Latin RockEtichetta: Columbia[. Judаs Рriеst - Оriginаl Аlbum Сlаssiсs [5СD] (2008) Lee Aaron - Power, Soul, Rock n Roll - Live In Germany (2019) [DVD5 Girlsсhооl - Тhе Соllесtiоn [2СD] (1998) [2000. 1 kHz (Tracks) Artist: Southerland Title: Little Bit Of You + Along Those Lines Released: 2021 Style: Country RAR Size: 78 Mb. Ultimate Santana è un album del chitarrista Carlos Santana, pubblicato nel 2007 arrivato in terza posizione in Nuova Zelanda, quarta in Finlandia, sesta in Australia, settima in Norvegia ed in ottava nella Billboard 200. 1 Santana Abraxas 1970. PERFORMER "Santana". Genesis play. Santana - 1971-03-xx - San Francisco, CA (AUD/FLAC) EDGE. Жанр: Classic Rock, Latin Rock, Blues. Río Roma - Rojo (2021) Hi-Res. Quality: DSD 128 (1 Bit / 5. [Flac] Latin Rock - Progetto Top 500 RS Santana - Santana[. Santana – Celestial Garden (Live NYC ’90) (2020) Santana – Greatest Hits: Live At Montreux 2011 (2020) Santana – Live From House Of Blues, Las Vegas, NV (2020) Santana – Tanglewood 1970: The Classic Early Broadcast (2019) Santana – Transcendence (Live) (2019) Santana – Soul Sacrifice (Live) (2019) Santana – Original Album. - Daily updated archive of HQ soundtracks. Catalog #: UDSACD 2079 Style: Blues Rock, Classic Rock Year: 1972 (2011) Format: FLAC (image +. Ram Jam - Let It All Out. PERFORMER "Santana" INDEX 01 31:37 TRACK 09 AUDIO TITLE "Le Fuente Del Ritmo" PERFORMER "Santana" INDEX 01 37:52 TRACK 10 AUDIO TITLE "Every Step Of The Way" PERFORMER "Santana" INDEX 01 42:26 •••. Ne vous inquietez pas car je compresse la version flac 16 bits en ce moment au format rar4 et vue que bzh41 ce plein du lien mp3 hs je vais essayer de trouver la version MP3 de cette album. wav" WAVE INDEX 01 00:00:00 TRACK 06 AUDIO TITLE "Guajira" PERFORMER Santana III is an album that undeservingly stands in the shadows behind the towering legend that is. LOVECRAFT VANILLA FUDGE THE BYRDS BOB DYLAN THE ROLLING STONES THE BEATLES. Artist: Santana Title Of Album: IV Release Date: 2016 Location: USA Label: Santana IV Records (S4007) Genre: Classic Rock Latin Rock Blues Quality: FLAC | lossless (image+. Santana-Abraxas-1970(FLAC) • Santana • pliki użytkownika GameEndHDmovie przechowywane w serwisie Chomikuj. If you want to support the artist or artists that recorded and released this music, please go and purchase their music. cue) Зарубежная [ Читать дальше ]. Santana / Santana FLAC 96kHz/24bit Download XSON27816F96 $17. Жанр: Classic Rock, Latin Rock, Blues. Greg Errico)" PERFORMER "Santana" INDEX 01 17:12:66 TRACK 05 AUDIO TITLE "Jack Bruce / Hidden Cities (Feat. flac" WAVE TRACK 18 AUDIO PERFORMER "Captain Beefheart & His Magic Band" TITLE "Zig Zag Wanderer" INDEX 01 00:00:00 FILE "19. Captain Beefheart & His Magic Band - Zig Zag Wanderer. FLAC - Uploaded MP3 320 Juelz Santana (1) Juggaknots (9) Juice Aleem (1) We only index and link to content provided on other servers. Тема на торенте. REM GENRE Rock REM DATE 2016 REM DISCID C511B510 REM COMMENT "ExactAudioCopy v1. Made in US. 0 % Test CRC 8F917B9E Copy CRC 8F917B9E Accurately ripped (confidence 13) [3F06B139] (AR v2) Copy OK Track 20. Turiya Alice Coltrane & Devadip Carlos Santana – Illuminations (SACD) 7/27 Kodomo – Divider (DVD-A. Santana Discography. High quality Santana MP3 downloads from 7digital United States. [12- Flac Tracks ] The Night Before è un album del gruppo musicale belga Hooverphonic, pubblicato il 2010 È un gran ritorno quello degli Hooverphonic, cult band belga nata nel 1996. Santana, American musical group whose use of salsa and mambo-style percussion exposed a wide rock audience to traditional Latin American music. Аудиокодек: FLAC PERFORMER "Santana" INDEX 01 04:16:28 TRACK 03 AUDIO TITLE "Albatross" PERFORMER "Fleetwood Mac" INDEX 01 08:57:67 TRACK 04 AUDIO. : Tracklist :. flac: DR 17 05-Sally Mae. Детали релиза : Santana - The Hits Of Santana (1990) [FLAC (image +. Send us your vinyl records and you will be amazed at the fidelity you will hear from our professionally transferred and edited high resolution digital [FLAC] files. HTTP download also available at fast speeds. Ultradisc Ii Ultradisc Ii. flac Santana. Santana left Columbia in 1991 and signed with Polydor. FLAC Santana - Santana IV (2016) lossless music Download ape wav. # - A The (Ec) Nudes,Vanishing Point,1993,USA,Avantg,MP3,192 0. Download Santana-FLAC Fast and for Free. From Wikipedia: Bootlegging is often incorrectly referred to as piracy but there are important differences between the two terms. santana flac results 1 - 25 from 61. Ne vous inquietez pas car je compresse la version flac 16 bits en ce moment au format rar4 et vue que bzh41 ce plein du lien mp3 hs je vais essayer de trouver la version MP3 de cette album. THE ROLLING STONES SANTANA CREEDENCE CLEARWATER REVIVAL SLY & THE FAMILY STONE BLOOD SWEAT & TEARS CHICAGO CHANGO. Жанр: Classic Rock, Latin Rock, Blues. Album name. wav" WAVE INDEX 01 00:00:00 TRACK 06 AUDIO TITLE "Guajira" PERFORMER Santana III is an album that undeservingly stands in the shadows behind the towering legend that is. iOS 13 is faster and more responsive with optimizations across the system that improve app launch, reduce app download sizes and make Face ID even faster. flac" WAVE TRACK 01 AUDIO TITLE "Soul Sacrifice". Carlos Santana & Herbie Hancock- Live in Tokyo 1981 2019. – A Hero’s Death (2020) [24bit FLAC] Foals – Collected Reworks Vol. Track 02 audio. Index Of Kingdom X265. Greg Errico)" PERFORMER "Santana" INDEX 01 17:12:66 TRACK 05 AUDIO TITLE "Jack Bruce / Hidden Cities (Feat. Quality: FLAC 24 bit / 44. flac: DR 17 03-I Count the Days You're Gone. Best quality lossless flac music. Ultimate Santana è un album del chitarrista Carlos Santana, pubblicato nel 2007 arrivato in terza posizione in Nuova Zelanda, quarta in Finlandia, sesta in Australia, settima in Norvegia ed in ottava nella Billboard 200. Аудиокодек: FLAC (*. Santana Related artists. (Rock/Pop/Jazz) Santana - Collection (w. THE ROLLING STONES SANTANA CREEDENCE CLEARWATER REVIVAL SLY & THE FAMILY STONE BLOOD SWEAT & TEARS CHICAGO CHANGO. [24/96] Frank Sinatra - Francis Albert Sinatra & Antonio Carlos Jobim - 1967 (REPRISE RECORDS - FS 1021 STEREO) FLAC (image+. Though he ended his association with Sri Chimnoy in 1982, he remained intensely spiritual, especially during his live performances. 2000 - Supernatural CD 1 (G. Filename E:\Nafta Releases\VA - 100 Hits Rock Jukebox (5 CD 2016)[FLAC] - Naftamusic\CD 1\19 - Carlos Santana - Soul Sacrifice. santana flac Direct Download. 3384 KB/Sec. : Dati Album :. Label: CBS - SBP 233748,CBS - SBP-233748,CBS - CS9781 • Format: Vinyl LP, Album • Country: Australia • Genre: Rock, Latin • Style: Blues Rock, Rock & Roll, Hard Rock, Psychedelic Rock, Pop Rock. Cymande The Message Flac. COM specializes in high resolution vinyl LP to Digital [FLAC] transfers. Descarga acá Mercedes Sosa – The Best of. Artist: Santana Title Of Album: IV Release Date: 2016 Location: USA Label: Santana IV Records (S4007) Genre: Classic Rock Latin Rock Blues Quality: FLAC | lossless (image+. 20 db rem replaygain_track_peak 0. THE ROLLING STONES SANTANA CREEDENCE CLEARWATER REVIVAL SLY & THE FAMILY STONE BLOOD SWEAT & TEARS CHICAGO CHANGO. Request form. 1969 - Hot Tamales1988 - Viva Santana!1993 - Every Day I have The Blues1995 - Dance of The Rainbow Serpent1996 - The Very Best of Santana1998 - The Best of Santana1999. Library of lossless music of different music styles. flac: DR 16 04-Sinners Prayer. BLUE CHEER STEPPENWOLF THE GRATEFUL DEAD H. The Beatles A Hard Day's Night (1964) [FLAC] (2009 Stereo 3 of 16) - FLAC Release date: 1964. performer “santana” isrc qmr6y1200021 rem replaygain_track_gain -6. Redbone - Redbone 1970 FLAC USA Swamp Blues Funk Jazz Blues Rock s. flac Santana. 1 kHz MP3 320 Kbps. The band leaped to prominence after its appearance at Woodstock in 1969. (Studio FLAC) Carlos Santana Moonflower/Oneness/Swing of Delight Outtakes 76-79 aka "Ecuador-Unreleased Album" The CBS Automatt Studios San Francisco,CA 1977- 1978. 8224MHz | FLAC Tracks / 24bit / 88. flac: DR 17 05-Sally Mae. SANTANA - Live at Santa Barbara County Bowl, Santa Barbara, California, USA, 1991-09-07 [FLAC] NILS PETTER MOLVAER (with Eivind Aarset) - Live at Stadtgarten, Cologne, Germany, 2000-06-25 [FM][FLAC] PAT METHENY GROUP - The PMG Companion, Vol. cue) Bitrate: lossless Covers: in archive Amount of tracks: 10 Size ZIP: ~ 315 mb Upload: nitroflare. THE ROLLING STONES SANTANA CREEDENCE CLEARWATER REVIVAL SLY & THE FAMILY STONE BLOOD SWEAT & TEARS CHICAGO CHANGO. I have not provided a sound quality rating as virtually all are of sufficient high quality to rate around 5 out of 5, some are worthy of 5+ like the best official releases. Your Digital Media Has Never Looked So Good. formato: FLAC + CUE. Cymande The Message Flac. Оригинал FLAC. The Best of Santana Full Album 1998The Best of Santana Full Album 1998The Best of Santana Full Album 1998. Disseminate knowledge, share much more. flac: DR 16 04-Sinners Prayer. Free: Isle of Wight & Stockholm. Library of lossless music of different music styles. cue) Quality: Hi-Fi, lossless audio Sample Rate: 44. In 1993, Kevin Chalfant (of The Storm) performed with members of Journey on a few shows, and Schon, Cain, Valory, Smith and Rolie briefly considered reuniting the band with Chalfant as lead singer. After the group found themselves without a label in the mid-1990s, founding member and guitarist Carlos Santana began talks with Arista president Clive Davis, who first signed the group in 1969, which led to a new record deal. Santana - The Best Of Santana [FLAC]. 2 Other formats: ADX MOD WMA AAC APE AUD VOC. zip 348 MB 0. 1 Todo Cambia 2 Un Vestido y un Amor 3 Yo Vengo a Olfrecer Mi Corazón 4 La Maza 5 Gracias a la Vida 6 Y Dale Alegría a Mi Corazón 7 Los Mareados 8 Sólo le Pido a Dios 9 Razón de Vivir 10 El Tiempo Es Veloz 11 Mon Amour 12 La Estrella Azul 13 Inconciente Colectivo 14 Luna. Хаndriа - Sасrifiсium [2СD] (2014) Girlsсhооl - Тhе Соllесtiоn [2СD] (1998) [2000 Меtаlliса - НаrdwirеdТо Sеlf-Dеstruсt (3СD. flac Santana. Durée : 2220 secondesNombre de pistes : 9Piste 1 : Singing Winds, Crying BeastsPiste 2 : Black Magic Woman / Gypsy QueenPiste 3 : Oye Como VaPiste 4 : Incident at NeshaburPiste 5 : Se a CaboPiste 6 : Mother\'s DaughterPiste 7 : Samba Pa TiPiste 8 : Hope You\'re Feeling BetterPiste 9 : El Nicoya. Active Index Investing: Maximizing. [Flac] Latin Rock - Progetto Top 500 RS Santana - Santana[. "One of the most bootlegged radio broadcasts in Genesis' history was recorded at the Empire Pool, Wembley. 2000 - The Ultimate Collection CD (2 CD SonyTV47CD) 2001 - Divine Light. 20 db rem replaygain_track_peak 0. Santana - Santana III Жанр: Psychedelic Rock Носитель: CD Страна-производитель диска Everything. Made in EU. The main sections of the site: Soundtracks to animations. Аудиокодек: FLAC PERFORMER "Santana" INDEX 01 04:16:28 TRACK 03 AUDIO TITLE "Albatross" PERFORMER "Fleetwood Mac" INDEX 01 08:57:67 TRACK 04 AUDIO. santana flac Direct Download. Santana - Santana IV. 10月抖音神曲背景音乐100首精选大全 (一)[flac格式] 陈雪燃 - 无名之辈[flac格式] 正版2018抖音热门歌曲最新合集56首网盘打包下载[wav] 你的酒馆对我打了烊 - 陈雪凝[flac格式] 生僻字 - 陈柯宇[flac格式] 绿色 - 陈雪凝[flac格式] 浪子回头 (live) - 杨坤 歌手第三季第11期[flac. wav" WAVE INDEX 01 00:00:00 TRACK 06 AUDIO TITLE "Guajira" PERFORMER Santana III is an album that undeservingly stands in the shadows behind the towering legend that is. 0 X Track quality 100. Index 01 00:00:00. wav" WAVE TRACK 07 AUDIO TITLE "She's Released in 1988, Viva Santana! is a generous 30-track overview of Santana's first 20 years of recording. альбом Santana - Caravanserai [Vinyl-Rip] FLAC скачать торрент Залил: FlacTor / 28. cue) Bitrate: lossless Covers: in archive Amount of tracks: 14 Size ZIP: ~ 464 mb Upload: nitroflare. Carlos Santana - Summer Dreams - The Best Ballads Of Santana. 06 AUDIO TITLE "Peraza I" PERFORMER "Santana" INDEX 01 00:00:00 FILE "07 - She's Not There. Album Premiere: Toadies, 'The Lower Side of Uptown' Journey's Neal Schon Reflects as the Rock Hall Finally Beckons. From Wikipedia: Bootlegging is often incorrectly referred to as piracy but there are important differences between the two terms. The Best of Santana Full Album 1998The Best of Santana Full Album 1998The Best of Santana Full Album 1998. zip 348 MB 0. : Raccolte :. KrazyKnight. Santana - One With You. flac" WAVE TRACK 18 AUDIO PERFORMER "Captain Beefheart & His Magic Band" TITLE "Zig Zag Wanderer" INDEX 01 00:00:00 FILE "19. альбом Santana - Caravanserai [Vinyl-Rip] FLAC скачать торрент Залил: FlacTor / 28. flac: DR 16 04-Sinners Prayer. Тип рипа: Image+. Download Santana - Evil ways (2018) FLAC/MP3 or any other file from Music category. Mordor PL - Nothing Makes Any Sense. The Jimi Hendrix Experience – Are You Experienced? (1967) [2020, Remastered, Hi-Res SACD Rip] SACD Rip | ISO / DSD / 1bit / 2. Santana / The Best Of Santana. Santana - Santana IV. 1969 - Hot Tamales1988 - Viva Santana!1993 - Every Day I have The Blues1995 - Dance of The Rainbow Serpent1996 - The Very Best of Santana1998 - The Best of Santana1999 - The Very Best Of Santana 2 CD2000 - The Best of Santana Vol. Excellent Stereo Soundboard Recording:: Bootleg Siver CD:: CBR 320 kbps & FLAC. Santana III (2016, MFSL, UDSACD 2158, USA) EAC Rip | FLAC Image + Cue + Log | Full Scans Included PS3 SACD Rip | ISO @1bit/2. PERFORMER "Santana" INDEX 01 14:48:00 TRACK 05 AUDIO TITLE "Europa (Earth's Cry Heaven's Smile)" PERFORMER "Santana" INDEX 01 20:14:10 TRACK 06 AUDIO TITLE "Evil Ways" PERFORMER "Santana" INDEX 01 25:13:12 TRACK 07 AUDIO TITLE "American Gypsy" PERFORMER "Santana" INDEX 01 29:06:60 TRACK 08 AUDIO TITLE "Shango" PERFORMER "Santana" INDEX 01 32:48. Santana - Santana. Ne vous inquietez pas car je compresse la version flac 16 bits en ce moment au format rar4 et vue que bzh41 ce plein du lien mp3 hs je vais essayer de trouver la version MP3 de cette album. Santana - Secret Santana (FM/FLAC) EDGE. In case of lack of purchase, you will permanently delete the files within. PERFOMER "Santana". 01-Lay for Me Sometimes. Hamilton Bootleg Download. 8 % Extraction speed 6. Santana – Greatest Hits: Live At Montreux 2011 (2020) Santana – Live From House Of Blues, Las Vegas, NV (2020) Santana – Tanglewood 1970: The Classic Early Broadcast (2019). Track 02 audio. INDEX 01 00:00:00 FILE "17. Next Post. : Tracklist :. 05/02/2009 DEAD KENNEDYS - SPEND JULY 4th. flac: DR 16 04-Sinners Prayer. Santana - Evil Ways. Scene FLAC Music, muzik, musik scene Club, sets mix, music mp3s, WEB 320kbps Tracks, Private FTP Server, Musica VIP, Dance Hits, 90s Various artists VA, EDM Live Radio, Music Stream, Electro House, Club Dance Music Mix, Electro House, Deep House, Chill Out, Trap, Bounce and much more. (The Quality Music Project) In this project me and my fellow pirates share only quality items out of our CD collections in lossless FLAC and include covers, especially for those who like to burn and print and put it in a nice and shiny jewelcase. "One of the most bootlegged radio broadcasts in Genesis' history was recorded at the Empire Pool, Wembley. DOWNLOAD FLAC AUDIO. 40 Peak level 88. Made in EU. Index Of Friends Hevc. PERFOMER "Santana". Music lossless for lovers of good sound. 8224MHz | FLAC Tracks / 24bit / 88. Art Studio USA). A MUST HAVE !!! A mythical want by hard core funk collectors for many years now, the Ben & The Platano Group ‎– Paris Soul album is considered one of the strongest rare groove releases to come out of France in the 1970s. flac: DR 17 02-Just to Be With You. * Carlos Santana : lead guitar (02,03,04,08,09), gu. Оригинал FLAC. (Midas Touch 93621/2) Recorded Live in Isle of Wight - August 29, 1970 & Stockholm - December 12, 1970. FlacMusicFinder. Performer: Santana Album: Caravanserai Label: Mobile Fidelity Sound Lab. Santana é uma banda americana, formada por um número variável de músicos que acompanham o guitarrista e compositor mexicano Carlos Santana desde o fim da década de 1960. wav" WAVE TRACK 02 AUDIO TITLE "Black Magic Woman" PERFORMER "Carlos Santana" INDEX 01 00:00:00. Artist: Santana Title Of Album: IV Release Date: 2016 Location: USA Label: Santana IV Records (S4007) Genre: Classic Rock Latin Rock Blues Quality: FLAC | lossless (image+. Santana - One With You. Request form. flac: DR 16 04-Sinners Prayer. santana flac Direct Download. rar 0; Size 457 MB; Fast download for credit 7 minut – 0,04. Santana - The Best Of Santana [FLAC]. Supernatural is the eighteenth studio album by Latin rock band Santana, released on June 15, 1999 on Arista Records. The Many Faces Of Santana (CD 2). 2 Other formats: ADX MOD WMA AAC APE AUD VOC. Santana - Santana IV. REM GENRE Rock REM DATE 2016 REM DISCID C511B510 REM COMMENT "ExactAudioCopy v1. cue+covers) Leng. flac: DR 12 06-Feets Out in the Hall. Ram Jam - Let It All Out. Santana – Santana (1978) [FLAC] Tagged Classic Rock, Santana Discover. Santana / Shango FLAC 96kHz/24bit Download XSON3054F96 $17. Nahrávejte, sdílejte a stahujte zdarma. [Flac] Latin Rock - Progetto Top 500 RS Santana - Santana[. In a small amount: Lossy ( MP3 320 kbps ). High quality Santana MP3 downloads from 7digital United States. santana flac Direct Download. Index of santana flac. BLUE CHEER STEPPENWOLF THE GRATEFUL DEAD H. Catalog #: 88697772072 Style: Blues Rock, Classic Rock Year: 2010 Format: FLAC (image +. Buy and sell music with collectors in the Marketplace. iOS 13 is faster and more responsive with optimizations across the system that improve app launch, reduce app download sizes and make Face ID even faster. 11-28-2020 05:18 PM by hvymtlsmash. FLAC - Uploaded MP3 320 Juelz Santana (1) Juggaknots (9) Juice Aleem (1) We only index and link to content provided on other servers. According to the terms of the DMCA, these boots infringe upon the copyrights of others: 22/12/2009 DIRE STRAITS - AMERICAN TOUR '95 GUNS 'N' ROSES - LA VIE EN ROSE. Quality: FLAC 24 bit / 44. È un gran ritorno quello degli Hooverphonic, cult band belga nata nel 1996. 1 kHz (Tracks) Artist: Southerland Title: Little Bit Of You + Along Those Lines Released: 2021 Style: Country RAR Size: 78 Mb. Download lossless flac music in Hi-Res 24 Bit format. com Password: without a password. 11 MB: 3 สัปดาห์: 19: 643: 10: 1: jingna. KISS - KISS ARMY (FLAC SILVER CD RIP) - Tokyo 1977. 2000 - Supernatural CD 1 (G. mp3: 2018-04-12 19:49. santana flac Direct Download. Artist: Boyd Small Title Of Album: Diamond Boy Release Date: 2007 Location: USA Label: Me And My Blues Records MMBCD 16 (NL) Genre: Modern Electric Blues Quality: FLAC (tracks+. zip: ~ 752 mb. I have an account at HDTracks and saw an announcement of the iconic 'Santana Abraxas' in 88/24 and 176/24. SONIC-RECREATION. Детали релиза : Santana - The Hits Of Santana (1990) [FLAC (image +. 2 Other formats: ADX MOD WMA AAC APE AUD VOC. br/user/rogerjazzfan5th track from Carlos Santana's "Caravanserai" album, 1972. – A Hero’s Death (2020) [24bit FLAC] Foals – Collected Reworks Vol. Artist: Santana Title Of Album: IV Release Date: 2016 Location: USA Label: Santana IV Records (S4007) Genre: Classic Rock Latin Rock Blues Quality: FLAC | lossless (image+. Library of lossless music of different music styles. cue) Quality: Hi-Fi, lossless audio Sample Rate: 44. : Tracklist :. Аудиокодек: FLAC (*. The Best of Santana Full Album 1998The Best of Santana Full Album 1998The Best of Santana Full Album 1998. Listen to music from Santana. INDEX 01 00:00:00 FILE "17. Exact Audio Copy V1. 10月抖音神曲背景音乐100首精选大全 (一)[flac格式] 陈雪燃 - 无名之辈[flac格式] 正版2018抖音热门歌曲最新合集56首网盘打包下载[wav] 你的酒馆对我打了烊 - 陈雪凝[flac格式] 生僻字 - 陈柯宇[flac格式] 绿色 - 陈雪凝[flac格式] 浪子回头 (live) - 杨坤 歌手第三季第11期[flac. [Flac] Latin Rock - Progetto Top 500 RS Santana - Santana[. Santana / The Best Of Santana. of? mp3 santana. Disseminate knowledge, share much more. Buy, preview and download over 30 million tracks in our store. com: Santana By Jack Low / BobMarley. FLAC Santana - Santana IV (2016) lossless music Download ape wav. Wikipedia is a free online encyclopedia, created and edited by volunteers around the world and hosted by the Wikimedia Foundation. Santana - Santana IV: The House Of Blues, Las Vegas, NV (3-21-2016) [MQA] Cindy Blackman Santana - Give the Drummer Some (2020) Santana - Jin-Go-Lo-Ba [Remastered] (1994). Performer: Santana Album: Guitar Heaven: The Greatest Guitar Classics Of All Time Label: Arista. Find the latest tracks, albums, and images from Santana. Index Of Kingdom X265. Santana-Abraxas-1970(FLAC) • Santana • pliki użytkownika GameEndHDmovie przechowywane w serwisie Chomikuj. [12- Flac Tracks ] The Night Before è un album del gruppo musicale belga Hooverphonic, pubblicato il 2010 È un gran ritorno quello degli Hooverphonic, cult band belga nata nel 1996. Carlos Santana tabs. Формат/Кодек: FLAC (image, tracks+cue+log) Битрейт аудио: Lossless Продолжительность: 85:33:37. Durée : 2220 secondesNombre de pistes : 9Piste 1 : Singing Winds, Crying BeastsPiste 2 : Black Magic Woman / Gypsy QueenPiste 3 : Oye Como VaPiste 4 : Incident at NeshaburPiste 5 : Se a CaboPiste 6 : Mother\'s DaughterPiste 7 : Samba Pa TiPiste 8 : Hope You\'re Feeling BetterPiste 9 : El Nicoya. Santana - Evil Ways. Формат/Кодек: FLAC (image, tracks+cue+log) Битрейт аудио: Lossless Продолжительность: 85:33:37. Tracklist & Download Links. KrazyKnight. cue) Quality: Hi-Fi, lossless audio Sample Rate: 44. Artist: Santana Album: The Hits Of Santana Label: Sony Music Catalog #: 466275 2 Released: 1990 Genre: Blues Rock, Latin Country: USA Duration: 01:07:43. 05/02/2009 DEAD KENNEDYS - SPEND JULY 4th. Оригинал FLAC. The main sections of the site: Soundtracks to animations. 01-Lay for Me Sometimes. Santana – Santana (1978) [FLAC] Tagged Classic Rock, Santana Discover. Faenza & Marco Horvat – Airs a quatre parties du Sieur Dassoucy (2019) [24bit FLAC] Fontaines D. 1969 - Hot Tamales1988 - Viva Santana!1993 - Every Day I have The Blues1995 - Dance of The Rainbow Serpent1996 - The Very Best of Santana1998 - The Best of Santana1999 - The Very Best Of Santana 2 CD2000 - The Best of Santana Vol. Buy, preview and download over 30 million tracks in our store. Groupe: Membre | Enregister: 29. CTI All-Stars - CTI Summer Jazz At The Hollywood Bowl 1972 (2017) [Hi-Res] FLAC Year Of Release: 1977 Genre: Jazz Format: FLAC Quality: Lossless 24 bit / 192 kHz. FLAC - Uploaded MP3 320 Juelz Santana (1) Juggaknots (9) Juice Aleem (1) We only index and link to content provided on other servers. The Jimi Hendrix Experience – Are You Experienced? (1967) [2020, Remastered, Hi-Res SACD Rip] SACD Rip | ISO / DSD / 1bit / 2. Аудиокодек: FLAC (*. Santana Albums. Santana : Ultimate Santana (flac) ไม่เสียเรโช 2021-01-05 21:51:02 ซีดีและไฟล์มาสเตอร์ต้นฉบับ 537. TITLE "Everybody's Everything". - In case the Audio Material is out of print, hard-to-find, or inaccessible in your country, you possess an authentic version of the album as standard CD - You're previewing/sampling the musical files before purchasing the Audio Material. Related Blog Posts. In case of lack of purchase, you will permanently delete the files within. Redbone - Redbone 1970 FLAC USA Swamp Blues Funk Jazz Blues Rock s. flac: DR 17 02-Just to Be With You. Битрейт аудио: lossless. FLAC Stereo 888 Kbps / 44. Album Premiere: Toadies, 'The Lower Side of Uptown' Journey's Neal Schon Reflects as the Rock Hall Finally Beckons. com: Santana By Jack Low / BobMarley. 999847 index 00 15:00:17 index 01 15:02. zip 520 MB 0. THE ROLLING STONES SANTANA CREEDENCE CLEARWATER REVIVAL SLY & THE FAMILY STONE BLOOD SWEAT & TEARS CHICAGO CHANGO. [Flac] Latin Rock - Progetto Top 500 RS Santana - Santana[. 11 MB: 3 สัปดาห์: 19: 643: 10: 1: jingna. Santana III (2016, MFSL, UDSACD 2158, USA) EAC Rip | FLAC Image + Cue + Log | Full Scans Included PS3 SACD Rip | ISO @1bit/2. Hamilton Bootleg Download. Ultradisc Ii Ultradisc Ii. (Or is it Santana's Caravanserai?) Brought to you by TQMP. PERFORMER "Santana" INDEX 01 31:37 TRACK 09 AUDIO TITLE "Le Fuente Del Ritmo" PERFORMER "Santana" INDEX 01 37:52 TRACK 10 AUDIO TITLE "Every Step Of The Way" PERFORMER "Santana" INDEX 01 42:26 •••. In 1994, he played at the commemorative concert at Woodstock, 25 years after his band's transformative. Search… Search. If you want to support the artist or artists that recorded and released this music, please go and purchase their music. Genre: Rock latino, Hard rock, Blues rock, Fusion, Rock psichedelico Quality: lossless (FLAC) Lenght: 3 days 13 hours 33 minutes e 37 seconds Rip Type: image+. flac Santana. Related Blog Posts. Album name. Track 02 audio. Scene FLAC Music, muzik, musik scene Club, sets mix, music mp3s, WEB 320kbps Tracks, Private FTP Server, Musica VIP, Dance Hits, 90s Various artists VA, EDM Live Radio, Music Stream, Electro House, Club Dance Music Mix, Electro House, Deep House, Chill Out, Trap, Bounce and much more. PERFOMER "Santana". Santana left Columbia in 1991 and signed with Polydor. 11-28-2020 05:10 PM by. Santana / Shango FLAC 96kHz/24bit Download XSON3054F96 $17. The index will aid those that prefer an A to Z alphabetical listing and help you instantly find a particular artist that is of interest to you. 98: Viewing 41 - 54 of 54 Products. Robby Bright-Sometimes You Just Know-CD-FLAC-2001-6DM. 98: Viewing 1 - 20 of 58 Products. Catalog of Artists. This blog is merely an index with public links for audio recordings of independent origin ROIO which have not been officially released. A Premium subscription allows you to enjoy additional benefits to the free service that Rapidgator offers. Scene FLAC Music, muzik, musik scene Club, sets mix, music mp3s, WEB 320kbps Tracks, Private FTP Server, Musica VIP, Dance Hits, 90s Various artists VA, EDM Live Radio, Music Stream, Electro House, Club Dance Music Mix, Electro House, Deep House, Chill Out, Trap, Bounce and much more. wav" WAVE TRACK 07 AUDIO TITLE "She's Released in 1988, Viva Santana! is a generous 30-track overview of Santana's first 20 years of recording. TORRENT NAME. Previous Post: Santana – Studio Masters Collection (20 Studio Albums, 1969-2014) [FLAC 24/96] Next Post: Sam Amidon – The Following Mountain (2017) [Qobuz FLAC 24/44,1] Leave a Reply Cancel reply. Download Santana - Evil ways (2018) FLAC/MP3 or any other file from Music category. Find Santana discography, albums and singles on AllMusic. (Midas Touch 93621/2) Recorded Live in Isle of Wight - August 29, 1970 & Stockholm - December 12, 1970. flac" WAVE TRACK 01 AUDIO TITLE "Soul Sacrifice". 999847 index 00 15:00:17 index 01 15:02. 98: Santana / Moonflower 180 Gram Vinyl Record AFRM 34914 $39. 2000 - Supernatural CD 1 (G. Art Studio USA). альбом Santana - Caravanserai [Vinyl-Rip] FLAC скачать торрент Залил: FlacTor / 28. In a small amount: Lossy ( MP3 320 kbps ). 40 Peak level 88. (The Quality Music Project) In this project me and my fellow pirates share only quality items out of our CD collections in lossless FLAC and include covers, especially for those who like to burn and print and put it in a nice and shiny jewelcase. Como o próprio Santana, a banda é conhecida por ter ajudado a difundir o latin rock por todo o mundo. Art Studio USA). flac" WAVE TRACK 17 AUDIO PERFORMER "Santana" TITLE "Evil Ways" INDEX 01 00:00:00 FILE "18. * Carlos Santana : lead guitar (02,03,04,08,09), gu. Santana - Evil Ways. santana flac Direct Download. "One of the most bootlegged radio broadcasts in Genesis' history was recorded at the Empire Pool, Wembley. Turiya Alice Coltrane & Devadip Carlos Santana – Illuminations (SACD) 7/27 Kodomo – Divider (DVD-A. 0 % Test CRC 8F917B9E Copy CRC 8F917B9E Accurately ripped (confidence 13) [3F06B139] (AR v2) Copy OK Track 20. Used drive : TSSTcorpCD/DVDW TRACK 01 AUDIO TITLE "Persuasion" PERFORMER "Santana" INDEX 01 00:00:00 TRACK 02 AUDIO. From Wikipedia: Bootlegging is often incorrectly referred to as piracy but there are important differences between the two terms. Something told me to do a little googling and found this thread on Computer Audiophile suggesting that the HDTracks version is simply a SACD transfer or an upsampled redbook reissue. cue, log), EAC Burst, scans Length: 47:48 min Tracks: 11 Total Size: 339 Mb (+3%) WebSite: discogs. 11 MB: 3 สัปดาห์: 19: 643: 10: 1: jingna. 98: Viewing 41 - 54 of 54 Products. Appropriately, it concentrates on the band's. Релиз подготовлен Proper SelfMade Lossless Group "Lossless Group - Always Proper, Ever SelfMade" Carlos Santana - The Very Best Of 00:00:00 FILE "02 - Black Magic Woman. Index 01 00:00:00. HTTP download also available at fast speeds. Excellent Stereo Soundboard Recording:: Bootleg Siver CD:: CBR 320 kbps & FLAC. Quality: DSD 128 (1 Bit / 5. Download Santana-Discography 1969-2013 Lossless Torrent for free, Direct Downloads via Magnet Link and FREE Movies Online to Watch Also available, Hash : E6BE1FBC0B147D2D3C8C73B99EF2CFAB52C17837. flac) Тип рипа: image+. com: Santana By Jack Low / BobMarley. PERFORMER "Santana" INDEX 01 14:48:00 TRACK 05 AUDIO TITLE "Europa (Earth's Cry Heaven's Smile)" PERFORMER "Santana" INDEX 01 20:14:10 TRACK 06 AUDIO TITLE "Evil Ways" PERFORMER "Santana" INDEX 01 25:13:12 TRACK 07 AUDIO TITLE "American Gypsy" PERFORMER "Santana" INDEX 01 29:06:60 TRACK 08 AUDIO TITLE "Shango" PERFORMER "Santana" INDEX 01 32:48. TITLE "Everybody's Everything". Art Studio USA). Santana - Secret Santana (FM/FLAC) EDGE. 720 Aleación,1986,MEX,Prog,MP3,192 21st Century Schizoid Band. Used drive : TSSTcorpCDDVDW SH-216DB INDEX 01 29:06:60 TRACK 08 AUDIO TITLE "Shango" PERFORMER "Santana" INDEX 01 32:48:22. com Password: without a password. Free: Isle of Wight & Stockholm. 1 kHz (Tracks) Artist: Eagles Title: Hell Freezes Over. Album Premiere: Toadies, 'The Lower Side of Uptown' Journey's Neal Schon Reflects as the Rock Hall Finally Beckons. Find the latest tracks, albums, and images from Santana. Discover music on Discogs, the largest online music database. ]Titolo: Santana Anno: 1969 Genere: Latin RockEtichetta: Columbia[. flac) Тип рипа: image+. Формат/Кодек: FLAC (image, tracks+cue+log) Битрейт аудио: Lossless Продолжительность: 85:33:37. From Wikipedia: Bootlegging is often incorrectly referred to as piracy but there are important differences between the two terms. This means it has the songs that you know from the radio, whether it's "Oye Como Va," "Black Magic Woman," and "Evil Ways" or "Smooth," "Maria, Maria. flac: DR 17 05-Sally Mae. cue) Bitrate: lossless Covers: in archive Amount of tracks: 14 Size ZIP: ~ 464 mb Upload: nitroflare. Ultradisc Ii Ultradisc Ii. 1" PERFORMER "Santana" TITLE "IV" FILE "Santana - IV. flac" WAVE TRACK 17 AUDIO PERFORMER "Santana" TITLE "Evil Ways" INDEX 01 00:00:00 FILE "18. Год выпуска: 2016. Used drive : TSSTcorpCDDVDW SH-216DB INDEX 01 29:06:60 TRACK 08 AUDIO TITLE "Shango" PERFORMER "Santana" INDEX 01 32:48:22. 1 kHz / 16 Bit Source: CD Album Artist: Ricky Martin Album Name: Ricky Martin Label, Catalog: Columbia, CK 69891 (USA) Genre: Pop, Latin Pop Release Date: 1999 ArtWork: included Size. 3ost - Lossless Soundtracks. Wikipedia is a free online encyclopedia, created and edited by volunteers around the world and hosted by the Wikimedia Foundation. Santana Albums. Santana - Santana III Жанр: Psychedelic Rock Носитель: CD Страна-производитель диска Everything. Аудиокодек: FLAC (*. flac) Тип рипа: image+. 2000 - The Ultimate Collection CD (2 CD SonyTV47CD) 2001 - Divine Light. KISS - KISS ARMY (FLAC SILVER CD RIP) - Tokyo 1977. zip 348 MB 0. Download santana flac Torrents from Our Search Results, GET santana flac Torrent or Magnet via Bittorrent clients. 4: 524 : Edgar Winter - 1974-09-10 - Boston, MA (AUD/FLAC) EDGE. Santana, American musical group whose use of salsa and mambo-style percussion exposed a wide rock audience to traditional Latin American music. Аудиокодек: FLAC. Judаs Рriеst - Оriginаl Аlbum Сlаssiсs [5СD] (2008) Lee Aaron - Power, Soul, Rock n Roll - Live In Germany (2019) [DVD5 Girlsсhооl - Тhе Соllесtiоn [2СD] (1998) [2000. 2 Santana Abraxas 1970. flac: DR 17 07-Think. Carlos Santana tabs. Track 02 audio. 988708 index 00 09:48:57 index 01 09:50:57 track 03 audio title “lovers from another time” performer “santana” isrc qmr6y1200022 rem replaygain_track_gain -4. Catalog #: UDSACD 2079 Style: Blues Rock, Classic Rock Year: 1972 (2011) Format: FLAC (image +. iso / FLAC / WAV / MP4) 8/3 Paul Draper – Spooky Action (2CD+DVD-V [dts]) 8/11 (limited to 150 pcs) El Donk – It Takes a Compound to Raise a Child / Trivial Pursuit of the Unknown / Smarter phones, dumber people (FLAC) 8/17. 1 kHz MP3 320 Kbps. COM specializes in high resolution vinyl LP to Digital [FLAC] transfers. # - A The (Ec) Nudes,Vanishing Point,1993,USA,Avantg,MP3,192 0. Made in US. Index 01 00:00:00. INDEX 01 00:00:00 FILE "17. Santana - Santana III Жанр: Psychedelic Rock Носитель: CD Страна-производитель диска Everything. More Santana-flac available on the site. Joe Cocker - Greatest Hits [Vinyl rip 24 bit 96 khz] [2015 Army Of The Pharaohs - Дискография [2006-2010. II: 1981 – 1982 [2CD][FLAC]. rar 0; Size 457 MB; Fast download for credit 7 minut – 0,04. September 2016 EAC extraction logfile from 23. 20 db rem replaygain_track_peak 0. Santana - One With You. 2000 - Supernatural CD 1 (G. 11-28-2020 05:10 PM by. Sacd Download Sacd Download. performer “santana” isrc qmr6y1200021 rem replaygain_track_gain -6. Buy, preview and download over 30 million tracks in our store. 10月抖音神曲背景音乐100首精选大全 (一)[flac格式] 陈雪燃 - 无名之辈[flac格式] 正版2018抖音热门歌曲最新合集56首网盘打包下载[wav] 你的酒馆对我打了烊 - 陈雪凝[flac格式] 生僻字 - 陈柯宇[flac格式] 绿色 - 陈雪凝[flac格式] 浪子回头 (live) - 杨坤 歌手第三季第11期[flac. According to the terms of the DMCA, these boots infringe upon the copyrights of others: 22/12/2009 DIRE STRAITS - AMERICAN TOUR '95 GUNS 'N' ROSES - LA VIE EN ROSE. cue) Quality: Hi-Fi, lossless audio Sample Rate: 44. formato: FLAC + CUE. Santana / Santana FLAC 96kHz/24bit Download XSON27816F96 $17. com: Santana By Jack Low / BobMarley. 0 % Test CRC 8F917B9E Copy CRC 8F917B9E Accurately ripped (confidence 13) [3F06B139] (AR v2) Copy OK Track 20. - In case the Audio Material is out of print, hard-to-find, or inaccessible in your country, you possess an authentic version of the album as standard CD - You're previewing/sampling the musical files before purchasing the Audio Material. Greg Errico)" PERFORMER "Santana" INDEX 01 17:12:66 TRACK 05 AUDIO TITLE "Jack Bruce / Hidden Cities (Feat. A Premium subscription allows you to enjoy additional benefits to the free service that Rapidgator offers. 1969 - Hot Tamales1988 - Viva Santana!1993 - Every Day I have The Blues1995 - Dance of The Rainbow Serpent1996 - The Very Best of Santana1998 - The Best of Santana1999. THE ROLLING STONES SANTANA CREEDENCE CLEARWATER REVIVAL SLY & THE FAMILY STONE BLOOD SWEAT & TEARS CHICAGO CHANGO. FLAC - Uploaded MP3 320 Juelz Santana (1) Juggaknots (9) Juice Aleem (1) We only index and link to content provided on other servers. Turiya Alice Coltrane, Mahavishnu John McLaughlin, Santana Brothers) - 32 albums (35 CD) - 1969-2012, FLAC (image+. Related Blog Posts. 3ost - Lossless Soundtracks. : Dati Album :. In a small amount: Lossy ( MP3 320 kbps ). Performer: Hardhouse Title: Die Gallier Style: Techno, Euro House Released: 1992 Country: Germany MP3 album: 1769 mb FLAC album: 1900 mb WMA album: 1552 mb Rating: 4. Album name. cue Битрейт аудио:lossless Источник (релизер) December 2012, 18:59. Index - Index 1967-1970 USA Psychedelic Garage Pop Blues Rock s. 999847 index 00 15:00:17 index 01 15:02. formato: FLAC + CUE. The band leaped to prominence after its appearance at Woodstock in 1969. 8224MHz | FLAC Tracks / 24bit / 88. Search… Search. Art Studio USA) 2000 - The Best Of Santana CD 2 (G. Captain Beefheart & His Magic Band - Zig Zag Wanderer. 0 X Track quality 100. Santana – Greatest Hits: Live At Montreux 2011 (2020) Santana – Live From House Of Blues, Las Vegas, NV (2020) Santana – Tanglewood 1970: The Classic Early Broadcast (2019). 16-bit FLAC;. flac” WAVE TRACK 01 AUDIO TITLE “Eternal Caravan Of Reincarnation” PERFORMER “Santana” INDEX 01 00:00:00 TRACK 02 AUDIO. Santana Discography.